My Site

BBC - Attenborough & the Giant Egg (2011)

  • Author: diudiu;  
  • Read 85;  
  • Date: 28-08-2015, 08:39;  
BBC - Attenborough & the Giant Egg (2011)

BBC - Attenborough & the Giant Egg (2011)
HDTV | 1280x720 | MP4/AVC @ 2315 Kbps | 58mn | Audio: English AAC 93.5 kbps, 2 channels | Subs: none | 0.99 GB
Genre: Documentary

David Attenborough returns to the isl& of Madagascar on a very personal quest. In 1960 he visited the isl& to film one of his first ever wildlife series, Zoo Quest. Whilst he was there, he acquired a giant egg. It was the egg of an extinct bird known as the 'elephant bird' - the largest bird that ever lived. It has been one of his most treasured possessions ever since.
Fifty years older, he now returns to the isl& to find out more about this amazing creature & to see how the isl& has changed. Could the elephant bird's fate provide lessons that may help protect Madagascar's remaining wildlife?

Using Zoo Quest archive & specially shot location footage, this film follows David as he revisits scenes from his youth & meets people at the front line of wildlife protection. On his return, scientists at Oxford University are able to reveal for the first time how old David's egg actually is - & what that might tell us about the legendary elephant bird.

General
Complete name : Attenborough_&_the_Giant_Egg.mp4
Format : MPEG-4
Format profile : Base Media
Codec ID : isom
File size : 1 016 MiB
Duration : 58mn 52s
Overall bit rate mode : Variable
Overall bit rate : 2 414 Kbps

Video
ID : 1
Format : AVC
Format/Info : Advanced Video Codec
Format profile : [email protected]
Format settings, CABAC : Yes
Format settings, ReFrames : 2 frames
Codec ID : avc1
Codec ID/Info : Advanced Video Coding
Duration : 58mn 52s
Bit rate mode : Variable
Bit rate : 2 315 Kbps
Maximum bit rate : 3 500 Kbps
Width : 1 280 pixels
Height : 720 pixels
Display aspect ratio : 16:9
Frame rate mode : Constant
Frame rate : 25.000 fps
Color space : YUV
Chroma subsampling : 4:2:0
Bit depth : 8 bits
Scan type : Progressive
Bits/(Pixel*Frame) : 0.100
Stream size : 975 MiB (96%)

Audio
ID : 2
Format : AAC
Format/Info : Advanced Audio Codec
Format profile : LC
Codec ID : 40
Duration : 58mn 52s
Bit rate mode : Constant
Bit rate : 93.5 Kbps
Channel(s) : 2 channels
Channel positions : Front: L R
Sampling rate : 48.0 KHz
Compression mode : Lossy
Stream size : 39.4 MiB (4%)

BBC - Attenborough & the Giant Egg (2011)

BBC - Attenborough & the Giant Egg (2011)

BBC - Attenborough & the Giant Egg (2011)

BBC - Attenborough & the Giant Egg (2011)


Download link:
Links are Interchangeable - Single Extraction - Premium Download To Resumable:
Dear visitor, you went to the site as unregistered user.
We encourage you to register or enter the site under your name.
0

Please Buy Premium Here ^-^

UploadGIG.com